<svg xmlns="http://www.w3.org/2000/svg">
<defs>
<font
   id="EmbeddedFont_1-2"
   horiz-adv-x="2048"
   horiz-origin-x="0"
   horiz-origin-y="0"
   vert-origin-x="512"
   vert-origin-y="768"
   vert-adv-y="1024">
   <font-face
   font-family="Bahnschrift SemiLight embedded"
   units-per-em="2048"
   font-weight="normal"
   font-style="normal"
   ascent="1614"
   descent="423"
   id="font-face528" />
   <missing-glyph
   horiz-adv-x="2048"
   d="M 0,0 L 2047,0 2047,2047 0,2047 0,0 Z"
   id="missing-glyph530" />
   <glyph
   unicode="r"
   horiz-adv-x="715"
   d="M 160,1038 L 334,1038 334,0 160,0 160,1038 Z M 751,822 C 732,844 707,861 677,872 647,883 612,889 573,889 498,889 439,869 397,828 355,787 334,730 334,657 L 313,857 C 348,919 394,967 450,1002 506,1036 568,1053 635,1053 682,1053 725,1046 764,1033 802,1019 835,999 864,972 L 751,822 Z"
   id="glyph532" />
   <glyph
   unicode="p"
   horiz-adv-x="821"
   d="M 160,1038 L 334,1038 334,-422 160,-422 160,1038 Z M 625,-15 C 551,-15 488,0 436,29 383,58 345,103 320,163 L 334,380 C 334,335 343,295 362,258 381,221 408,192 443,171 478,150 520,139 568,139 645,139 705,162 747,209 789,255 810,320 810,404 L 810,629 C 810,715 789,782 747,829 705,876 645,899 568,899 520,899 478,889 443,868 408,847 381,819 362,783 343,747 334,707 334,663 L 313,863 C 347,927 392,975 447,1006 502,1037 564,1053 635,1053 708,1053 771,1037 824,1004 876,971 916,922 943,859 970,796 984,719 984,630 L 984,404 C 984,316 970,241 942,178 914,115 873,68 819,35 765,2 700,-15 625,-15 Z"
   id="glyph534" />
   <glyph
   unicode="n"
   horiz-adv-x="847"
   d="M 160,1038 L 334,1038 334,0 160,0 160,1038 Z M 820,629 C 820,712 799,776 756,821 713,866 652,889 573,889 497,889 438,869 397,829 355,789 334,732 334,659 L 313,859 C 348,924 393,973 449,1005 505,1037 569,1053 640,1053 753,1053 840,1016 902,943 963,869 994,765 994,630 L 994,0 820,0 820,629 Z"
   id="glyph536" />
   <glyph
   unicode="i"
   horiz-adv-x="212"
   d="M 175,1454 L 349,1454 349,1280 175,1280 175,1454 Z M 175,1038 L 349,1038 349,0 175,0 175,1038 Z"
   id="glyph538" />
   <glyph
   unicode="e"
   horiz-adv-x="874"
   d="M 585,-15 C 489,-15 407,3 339,40 271,76 219,129 184,199 148,268 130,352 130,450 L 130,567 C 130,670 147,757 182,830 216,903 266,958 331,996 396,1034 475,1053 567,1053 654,1053 728,1033 789,993 850,952 897,894 930,817 962,740 978,648 978,540 L 978,447 253,447 253,594 814,594 814,599 C 811,692 789,765 746,817 703,868 643,894 567,894 480,894 413,867 366,812 318,757 294,679 294,578 L 294,446 C 294,351 319,278 370,227 421,175 492,149 585,149 630,149 674,158 718,177 762,195 801,221 835,254 L 835,254 951,140 951,140 C 900,91 843,53 779,26 715,-1 650,-15 585,-15 Z"
   id="glyph540" />
   <glyph
   unicode="d"
   horiz-adv-x="848"
   d="M 780,1454 L 954,1454 954,0 780,0 780,1454 Z M 489,-16 C 414,-16 349,1 295,34 241,67 200,115 172,178 144,241 130,316 130,404 L 130,632 C 130,721 144,798 171,861 198,924 238,973 291,1006 343,1039 406,1055 479,1055 550,1055 613,1040 668,1009 723,978 768,931 801,868 L 780,662 C 780,707 771,747 753,783 734,819 707,848 672,869 637,890 595,900 546,900 469,900 410,876 368,829 325,782 304,715 304,630 L 304,404 C 304,320 325,255 368,209 410,162 469,139 546,139 595,139 637,150 672,171 707,192 733,222 752,259 771,296 780,336 780,381 L 794,163 C 771,106 733,62 682,31 630,0 566,-16 489,-16 Z"
   id="glyph542" />
   <glyph
   unicode="a"
   horiz-adv-x="848"
   d="M 771,658 C 771,734 751,793 710,835 669,877 612,898 537,898 492,898 447,891 404,877 361,862 322,842 288,816 L 161,903 C 200,950 252,987 317,1014 381,1040 452,1053 531,1053 617,1053 691,1038 752,1008 813,977 860,933 892,876 924,818 940,748 940,667 L 940,0 771,0 771,658 Z M 492,-15 C 367,-15 273,12 208,67 143,122 110,201 110,306 110,407 140,483 200,536 259,588 346,614 460,614 L 780,614 794,465 461,465 C 401,465 355,452 324,425 293,398 277,358 277,306 277,251 297,209 338,180 378,151 437,136 514,136 598,136 662,145 706,162 749,179 771,205 771,239 L 792,98 C 773,73 748,53 719,36 690,19 656,7 618,-2 580,-11 538,-15 492,-15 Z"
   id="glyph544" />
   <glyph
   unicode="."
   horiz-adv-x="213"
   d="M 138,189 L 327,189 327,0 138,0 138,189 Z"
   id="glyph546" />
  </font><font
   id="EmbeddedFont_2-4"
   horiz-adv-x="2048"
   horiz-origin-x="0"
   horiz-origin-y="0"
   vert-origin-x="512"
   vert-origin-y="768"
   vert-adv-y="1024">
   <font-face
   font-family="Bahnschrift SemiLight embedded"
   units-per-em="2048"
   font-weight="bold"
   font-style="normal"
   ascent="1614"
   descent="423"
   id="font-face551" />
   <missing-glyph
   horiz-adv-x="2048"
   d="M 0,0 L 2047,0 2047,2047 0,2047 0,0 Z"
   id="missing-glyph553" />
   <glyph
   unicode="u"
   horiz-adv-x="874"
   d="M 800,1058 L 1011,1058 1011,0 800,0 800,1058 Z M 368,419 C 368,343 387,286 425,246 462,206 516,186 585,186 655,186 708,204 745,240 782,276 800,334 800,416 L 855,179 C 829,122 789,76 733,40 678,3 610,-15 529,-15 410,-15 318,23 254,100 189,176 157,283 157,419 L 157,1058 368,1058 368,419 Z"
   id="glyph555" />
   <glyph
   unicode="s"
   horiz-adv-x="927"
   d="M 532,-15 C 472,-15 416,-9 363,3 309,15 259,32 212,55 165,78 121,110 78,152 L 78,152 195,297 195,297 C 259,256 319,226 374,206 429,185 481,175 532,175 616,175 679,188 721,214 763,241 783,277 783,325 783,357 773,381 754,397 734,414 707,425 674,431 640,437 592,443 528,448 522,448 516,448 509,449 502,449 496,449 491,450 488,450 485,450 482,451 480,451 477,451 475,451 406,457 348,467 301,482 253,496 212,524 179,564 146,605 129,663 129,738 129,810 146,872 179,922 212,972 259,1009 322,1035 385,1060 461,1072 550,1072 599,1072 648,1068 696,1058 745,1049 790,1035 834,1016 877,998 921,970 966,934 L 966,934 848,789 848,789 C 790,821 736,844 687,860 638,875 591,882 548,882 475,882 420,870 385,846 349,822 331,787 331,742 331,714 340,693 359,679 377,665 403,656 435,650 468,645 514,641 575,638 577,637 580,637 583,637 587,637 590,637 593,636 595,636 597,636 600,636 603,636 606,636 609,635 680,631 742,621 794,607 847,592 892,562 929,517 966,472 984,408 984,325 984,251 967,189 932,138 897,88 845,50 778,24 711,-2 629,-15 532,-15 Z"
   id="glyph557" />
   <glyph
   unicode="n"
   horiz-adv-x="874"
   d="M 157,1058 L 368,1058 368,0 157,0 157,1058 Z M 804,637 C 804,712 785,770 746,811 708,851 653,872 582,872 513,872 461,854 424,819 387,783 368,726 368,646 L 307,866 C 344,937 392,989 450,1023 508,1056 574,1072 648,1072 765,1072 855,1034 919,958 984,881 1016,774 1016,638 L 1016,0 804,0 804,637 Z"
   id="glyph559" />
   <glyph
   unicode="m"
   horiz-adv-x="1482"
   d="M 1402,637 C 1402,713 1384,771 1347,811 1311,851 1259,872 1193,872 1128,872 1079,852 1044,813 1009,774 991,712 991,625 L 900,817 C 935,901 982,964 1040,1008 1099,1051 1167,1072 1244,1072 1321,1072 1388,1055 1444,1021 1500,986 1542,936 1571,871 1599,805 1614,727 1614,638 L 1614,0 1402,0 1402,637 Z M 157,1058 L 368,1058 368,0 157,0 157,1058 Z M 779,637 C 779,712 762,770 726,811 691,851 640,872 575,872 508,872 457,854 422,818 386,783 368,725 368,644 L 307,864 C 342,935 389,988 445,1022 501,1056 565,1072 636,1072 710,1072 774,1055 828,1020 882,986 922,936 950,870 977,805 991,727 991,638 L 991,0 779,0 779,637 Z"
   id="glyph561" />
   <glyph
   unicode="i"
   horiz-adv-x="239"
   d="M 172,1466 L 383,1466 383,1255 172,1255 172,1466 Z M 172,1058 L 383,1058 383,0 172,0 172,1058 Z"
   id="glyph563" />
   <glyph
   unicode="h"
   horiz-adv-x="874"
   d="M 157,1466 L 368,1466 368,0 157,0 157,1466 Z M 804,637 C 804,712 785,770 746,811 708,851 653,872 582,872 513,872 460,854 424,819 387,784 368,727 368,647 L 307,867 C 344,937 392,989 450,1022 508,1056 574,1072 648,1072 765,1072 855,1034 919,958 984,881 1016,774 1016,638 L 1016,0 804,0 804,637 Z"
   id="glyph565" />
   <glyph
   unicode="e"
   horiz-adv-x="927"
   d="M 594,-15 C 496,-15 412,4 342,41 272,79 219,133 182,205 146,276 127,362 127,461 L 127,576 C 127,680 145,769 180,843 215,918 267,974 334,1014 401,1053 482,1072 576,1072 665,1072 741,1052 805,1010 869,968 917,908 950,829 983,750 1000,657 1000,549 L 1000,438 248,438 248,622 798,622 798,607 C 796,693 775,760 736,807 697,853 644,877 576,877 497,877 437,852 394,802 351,753 329,681 329,587 L 329,457 C 329,369 352,302 398,256 443,209 508,186 594,186 635,186 676,195 716,212 757,229 798,254 839,289 L 839,289 973,157 973,157 C 918,98 857,54 792,27 727,-1 660,-15 594,-15 Z"
   id="glyph567" />
   <glyph
   unicode="c"
   horiz-adv-x="900"
   d="M 588,-15 C 489,-15 405,3 336,38 268,74 216,126 180,195 145,264 127,348 127,447 L 127,615 C 127,713 145,796 181,865 216,933 268,985 337,1020 405,1055 489,1072 588,1072 643,1072 695,1066 744,1053 793,1040 836,1021 875,995 914,970 948,934 977,887 L 977,887 830,759 830,759 C 792,798 753,827 714,845 676,863 634,872 591,872 508,872 445,850 403,807 360,765 339,701 339,615 L 339,447 C 339,360 360,295 403,251 445,208 508,186 591,186 637,186 680,195 719,213 759,231 798,260 838,300 L 838,300 977,167 977,167 C 947,122 913,86 874,61 835,36 792,17 744,4 696,-8 644,-15 588,-15 Z"
   id="glyph569" />
   <glyph
   unicode="a"
   horiz-adv-x="874"
   d="M 756,665 C 756,734 738,787 702,825 666,862 614,880 547,880 505,880 463,874 423,860 382,847 342,827 303,800 L 158,901 C 202,961 256,1005 322,1032 388,1059 461,1072 541,1072 628,1072 704,1057 767,1025 831,994 879,948 913,888 946,828 963,757 963,674 L 963,0 756,0 756,665 Z M 502,-15 C 375,-15 278,14 210,71 142,128 108,211 108,320 108,425 139,505 202,560 264,615 354,642 471,642 L 804,642 820,456 472,456 C 419,456 379,445 352,422 326,399 313,365 313,320 313,272 330,236 365,211 399,186 452,173 524,173 604,173 663,181 700,196 737,210 756,237 756,274 L 818,111 C 794,80 767,56 736,38 705,21 670,7 631,-1 593,-10 550,-15 502,-15 Z"
   id="glyph571" />
   <glyph
   unicode="B"
   horiz-adv-x="1086"
   d="M 294,199 L 703,199 C 810,199 886,218 932,256 979,295 1002,349 1002,419 L 1002,422 C 1002,471 994,512 977,547 960,581 933,607 896,626 859,645 812,654 752,654 L 294,654 294,850 752,850 C 830,850 888,867 926,901 964,935 983,987 983,1055 L 983,1055 C 983,1127 962,1180 920,1215 878,1250 813,1268 725,1268 L 294,1268 294,1466 758,1466 C 854,1466 934,1449 1000,1416 1066,1383 1115,1336 1147,1275 1180,1214 1196,1142 1196,1059 L 1196,1059 C 1196,1008 1186,960 1166,914 1145,869 1114,829 1073,797 1032,764 986,749 936,752 985,755 1032,739 1077,705 1122,670 1156,627 1179,576 1203,525 1215,470 1215,411 L 1215,408 C 1215,328 1197,256 1161,194 1125,132 1074,84 1007,51 940,17 863,0 775,0 L 294,0 294,199 Z M 176,1466 L 388,1466 388,0 176,0 176,1466 Z"
   id="glyph573" />
  </font><g
   ooo:slide="id1"
   ooo:id-list="id3"
   id="g578" /><g
   id="bullet-char-template-57356-5"
   transform="matrix(4.8828125e-4,0,0,-4.8828125e-4,0,0)">
   <path
   d="M 580,1141 1163,571 580,0 -4,571 Z"
   id="path582" />
  </g><g
   id="bullet-char-template-57354-8"
   transform="matrix(4.8828125e-4,0,0,-4.8828125e-4,0,0)">
   <path
   d="M 8,1128 H 1137 V 0 H 8 Z"
   id="path585" />
  </g><g
   id="bullet-char-template-10146-0"
   transform="matrix(4.8828125e-4,0,0,-4.8828125e-4,0,0)">
   <path
   d="M 174,0 602,739 174,1481 1456,739 Z M 1358,739 309,1346 659,739 Z"
   id="path588" />
  </g><g
   id="bullet-char-template-10132-4"
   transform="matrix(4.8828125e-4,0,0,-4.8828125e-4,0,0)">
   <path
   d="M 2015,739 1276,0 H 717 l 543,543 H 174 v 393 h 1086 l -543,545 h 557 z"
   id="path591" />
  </g><g
   id="bullet-char-template-10007-2"
   transform="matrix(4.8828125e-4,0,0,-4.8828125e-4,0,0)">
   <path
   d="m 0,-2 c -7,16 -16,29 -25,39 l 381,530 c -94,256 -141,385 -141,387 0,25 13,38 40,38 9,0 21,-2 34,-5 21,4 42,12 65,25 l 27,-13 111,-251 280,301 64,-25 24,25 c 21,-10 41,-24 62,-43 C 886,937 835,863 770,784 769,783 710,716 594,584 L 774,223 c 0,-27 -21,-55 -63,-84 l 16,-20 C 717,90 699,76 672,76 641,76 570,178 457,381 L 164,-76 c -22,-34 -53,-51 -92,-51 -42,0 -63,17 -64,51 -7,9 -10,24 -10,44 0,9 1,19 2,30 z"
   id="path594" />
  </g><g
   id="bullet-char-template-10004-4"
   transform="matrix(4.8828125e-4,0,0,-4.8828125e-4,0,0)">
   <path
   d="M 285,-33 C 182,-33 111,30 74,156 52,228 41,333 41,471 c 0,78 14,145 41,201 34,71 87,106 158,106 53,0 88,-31 106,-94 l 23,-176 c 8,-64 28,-97 59,-98 l 735,706 c 11,11 33,17 66,17 42,0 63,-15 63,-46 V 965 c 0,-36 -10,-64 -30,-84 L 442,47 C 390,-6 338,-33 285,-33 Z"
   id="path597" />
  </g><g
   id="bullet-char-template-9679-6"
   transform="matrix(4.8828125e-4,0,0,-4.8828125e-4,0,0)">
   <path
   d="M 813,0 C 632,0 489,54 383,161 276,268 223,411 223,592 c 0,181 53,324 160,431 106,107 249,161 430,161 179,0 323,-54 432,-161 108,-107 162,-251 162,-431 0,-180 -54,-324 -162,-431 C 1136,54 992,0 813,0 Z"
   id="path600" />
  </g><g
   id="bullet-char-template-8226-0"
   transform="matrix(4.8828125e-4,0,0,-4.8828125e-4,0,0)">
   <path
   d="m 346,457 c -73,0 -137,26 -191,78 -54,51 -81,114 -81,188 0,73 27,136 81,188 54,52 118,78 191,78 73,0 134,-26 185,-79 51,-51 77,-114 77,-187 0,-75 -25,-137 -76,-188 -50,-52 -112,-78 -186,-78 z"
   id="path603" />
  </g><g
   id="bullet-char-template-8211-1"
   transform="matrix(4.8828125e-4,0,0,-4.8828125e-4,0,0)">
   <path
   d="M -4,459 H 1135 V 606 H -4 Z"
   id="path606" />
  </g><g
   id="bullet-char-template-61548-2"
   transform="matrix(4.8828125e-4,0,0,-4.8828125e-4,0,0)">
   <path
   d="m 173,740 c 0,163 58,303 173,419 116,115 255,173 419,173 163,0 302,-58 418,-173 116,-116 174,-256 174,-419 0,-163 -58,-303 -174,-418 C 1067,206 928,148 765,148 601,148 462,206 346,322 231,437 173,577 173,740 Z"
   id="path609" />
  </g><clipPath
   id="presentation_clip_path-4-5"
   clipPathUnits="userSpaceOnUse">
   <rect
   x="0"
   y="0"
   width="21000"
   height="29700"
   id="rect520-0" />
  </clipPath></defs>
 <defs
   id="defs31">
  <font
   id="EmbeddedFont_1"
   horiz-adv-x="2048"
   horiz-origin-x="0"
   horiz-origin-y="0"
   vert-origin-x="512"
   vert-origin-y="768"
   vert-adv-y="1024">
   <font-face
   font-family="Bahnschrift SemiLight embedded"
   units-per-em="2048"
   font-weight="normal"
   font-style="normal"
   ascent="1614"
   descent="423"
   id="font-face10" />
   <missing-glyph
   horiz-adv-x="2048"
   d="M 0,0 L 2047,0 2047,2047 0,2047 0,0 Z"
   id="missing-glyph12" />
   <glyph
   unicode="r"
   horiz-adv-x="715"
   d="M 160,1038 L 334,1038 334,0 160,0 160,1038 Z M 751,822 C 732,844 707,861 677,872 647,883 612,889 573,889 498,889 439,869 397,828 355,787 334,730 334,657 L 313,857 C 348,919 394,967 450,1002 506,1036 568,1053 635,1053 682,1053 725,1046 764,1033 802,1019 835,999 864,972 L 751,822 Z"
   id="glyph14" />
   <glyph
   unicode="p"
   horiz-adv-x="821"
   d="M 160,1038 L 334,1038 334,-422 160,-422 160,1038 Z M 625,-15 C 551,-15 488,0 436,29 383,58 345,103 320,163 L 334,380 C 334,335 343,295 362,258 381,221 408,192 443,171 478,150 520,139 568,139 645,139 705,162 747,209 789,255 810,320 810,404 L 810,629 C 810,715 789,782 747,829 705,876 645,899 568,899 520,899 478,889 443,868 408,847 381,819 362,783 343,747 334,707 334,663 L 313,863 C 347,927 392,975 447,1006 502,1037 564,1053 635,1053 708,1053 771,1037 824,1004 876,971 916,922 943,859 970,796 984,719 984,630 L 984,404 C 984,316 970,241 942,178 914,115 873,68 819,35 765,2 700,-15 625,-15 Z"
   id="glyph16" />
   <glyph
   unicode="n"
   horiz-adv-x="847"
   d="M 160,1038 L 334,1038 334,0 160,0 160,1038 Z M 820,629 C 820,712 799,776 756,821 713,866 652,889 573,889 497,889 438,869 397,829 355,789 334,732 334,659 L 313,859 C 348,924 393,973 449,1005 505,1037 569,1053 640,1053 753,1053 840,1016 902,943 963,869 994,765 994,630 L 994,0 820,0 820,629 Z"
   id="glyph18" />
   <glyph
   unicode="i"
   horiz-adv-x="212"
   d="M 175,1454 L 349,1454 349,1280 175,1280 175,1454 Z M 175,1038 L 349,1038 349,0 175,0 175,1038 Z"
   id="glyph20" />
   <glyph
   unicode="e"
   horiz-adv-x="874"
   d="M 585,-15 C 489,-15 407,3 339,40 271,76 219,129 184,199 148,268 130,352 130,450 L 130,567 C 130,670 147,757 182,830 216,903 266,958 331,996 396,1034 475,1053 567,1053 654,1053 728,1033 789,993 850,952 897,894 930,817 962,740 978,648 978,540 L 978,447 253,447 253,594 814,594 814,599 C 811,692 789,765 746,817 703,868 643,894 567,894 480,894 413,867 366,812 318,757 294,679 294,578 L 294,446 C 294,351 319,278 370,227 421,175 492,149 585,149 630,149 674,158 718,177 762,195 801,221 835,254 L 835,254 951,140 951,140 C 900,91 843,53 779,26 715,-1 650,-15 585,-15 Z"
   id="glyph22" />
   <glyph
   unicode="d"
   horiz-adv-x="848"
   d="M 780,1454 L 954,1454 954,0 780,0 780,1454 Z M 489,-16 C 414,-16 349,1 295,34 241,67 200,115 172,178 144,241 130,316 130,404 L 130,632 C 130,721 144,798 171,861 198,924 238,973 291,1006 343,1039 406,1055 479,1055 550,1055 613,1040 668,1009 723,978 768,931 801,868 L 780,662 C 780,707 771,747 753,783 734,819 707,848 672,869 637,890 595,900 546,900 469,900 410,876 368,829 325,782 304,715 304,630 L 304,404 C 304,320 325,255 368,209 410,162 469,139 546,139 595,139 637,150 672,171 707,192 733,222 752,259 771,296 780,336 780,381 L 794,163 C 771,106 733,62 682,31 630,0 566,-16 489,-16 Z"
   id="glyph24" />
   <glyph
   unicode="a"
   horiz-adv-x="848"
   d="M 771,658 C 771,734 751,793 710,835 669,877 612,898 537,898 492,898 447,891 404,877 361,862 322,842 288,816 L 161,903 C 200,950 252,987 317,1014 381,1040 452,1053 531,1053 617,1053 691,1038 752,1008 813,977 860,933 892,876 924,818 940,748 940,667 L 940,0 771,0 771,658 Z M 492,-15 C 367,-15 273,12 208,67 143,122 110,201 110,306 110,407 140,483 200,536 259,588 346,614 460,614 L 780,614 794,465 461,465 C 401,465 355,452 324,425 293,398 277,358 277,306 277,251 297,209 338,180 378,151 437,136 514,136 598,136 662,145 706,162 749,179 771,205 771,239 L 792,98 C 773,73 748,53 719,36 690,19 656,7 618,-2 580,-11 538,-15 492,-15 Z"
   id="glyph26" />
   <glyph
   unicode="."
   horiz-adv-x="213"
   d="M 138,189 L 327,189 327,0 138,0 138,189 Z"
   id="glyph28" />
  </font>
 </defs>
 <defs
   id="defs58">
  <font
   id="EmbeddedFont_2"
   horiz-adv-x="2048"
   horiz-origin-x="0"
   horiz-origin-y="0"
   vert-origin-x="512"
   vert-origin-y="768"
   vert-adv-y="1024">
   <font-face
   font-family="Bahnschrift SemiLight embedded"
   units-per-em="2048"
   font-weight="bold"
   font-style="normal"
   ascent="1614"
   descent="423"
   id="font-face33" />
   <missing-glyph
   horiz-adv-x="2048"
   d="M 0,0 L 2047,0 2047,2047 0,2047 0,0 Z"
   id="missing-glyph35" />
   <glyph
   unicode="u"
   horiz-adv-x="874"
   d="M 800,1058 L 1011,1058 1011,0 800,0 800,1058 Z M 368,419 C 368,343 387,286 425,246 462,206 516,186 585,186 655,186 708,204 745,240 782,276 800,334 800,416 L 855,179 C 829,122 789,76 733,40 678,3 610,-15 529,-15 410,-15 318,23 254,100 189,176 157,283 157,419 L 157,1058 368,1058 368,419 Z"
   id="glyph37" />
   <glyph
   unicode="s"
   horiz-adv-x="927"
   d="M 532,-15 C 472,-15 416,-9 363,3 309,15 259,32 212,55 165,78 121,110 78,152 L 78,152 195,297 195,297 C 259,256 319,226 374,206 429,185 481,175 532,175 616,175 679,188 721,214 763,241 783,277 783,325 783,357 773,381 754,397 734,414 707,425 674,431 640,437 592,443 528,448 522,448 516,448 509,449 502,449 496,449 491,450 488,450 485,450 482,451 480,451 477,451 475,451 406,457 348,467 301,482 253,496 212,524 179,564 146,605 129,663 129,738 129,810 146,872 179,922 212,972 259,1009 322,1035 385,1060 461,1072 550,1072 599,1072 648,1068 696,1058 745,1049 790,1035 834,1016 877,998 921,970 966,934 L 966,934 848,789 848,789 C 790,821 736,844 687,860 638,875 591,882 548,882 475,882 420,870 385,846 349,822 331,787 331,742 331,714 340,693 359,679 377,665 403,656 435,650 468,645 514,641 575,638 577,637 580,637 583,637 587,637 590,637 593,636 595,636 597,636 600,636 603,636 606,636 609,635 680,631 742,621 794,607 847,592 892,562 929,517 966,472 984,408 984,325 984,251 967,189 932,138 897,88 845,50 778,24 711,-2 629,-15 532,-15 Z"
   id="glyph39" />
   <glyph
   unicode="n"
   horiz-adv-x="874"
   d="M 157,1058 L 368,1058 368,0 157,0 157,1058 Z M 804,637 C 804,712 785,770 746,811 708,851 653,872 582,872 513,872 461,854 424,819 387,783 368,726 368,646 L 307,866 C 344,937 392,989 450,1023 508,1056 574,1072 648,1072 765,1072 855,1034 919,958 984,881 1016,774 1016,638 L 1016,0 804,0 804,637 Z"
   id="glyph41" />
   <glyph
   unicode="m"
   horiz-adv-x="1482"
   d="M 1402,637 C 1402,713 1384,771 1347,811 1311,851 1259,872 1193,872 1128,872 1079,852 1044,813 1009,774 991,712 991,625 L 900,817 C 935,901 982,964 1040,1008 1099,1051 1167,1072 1244,1072 1321,1072 1388,1055 1444,1021 1500,986 1542,936 1571,871 1599,805 1614,727 1614,638 L 1614,0 1402,0 1402,637 Z M 157,1058 L 368,1058 368,0 157,0 157,1058 Z M 779,637 C 779,712 762,770 726,811 691,851 640,872 575,872 508,872 457,854 422,818 386,783 368,725 368,644 L 307,864 C 342,935 389,988 445,1022 501,1056 565,1072 636,1072 710,1072 774,1055 828,1020 882,986 922,936 950,870 977,805 991,727 991,638 L 991,0 779,0 779,637 Z"
   id="glyph43" />
   <glyph
   unicode="i"
   horiz-adv-x="239"
   d="M 172,1466 L 383,1466 383,1255 172,1255 172,1466 Z M 172,1058 L 383,1058 383,0 172,0 172,1058 Z"
   id="glyph45" />
   <glyph
   unicode="h"
   horiz-adv-x="874"
   d="M 157,1466 L 368,1466 368,0 157,0 157,1466 Z M 804,637 C 804,712 785,770 746,811 708,851 653,872 582,872 513,872 460,854 424,819 387,784 368,727 368,647 L 307,867 C 344,937 392,989 450,1022 508,1056 574,1072 648,1072 765,1072 855,1034 919,958 984,881 1016,774 1016,638 L 1016,0 804,0 804,637 Z"
   id="glyph47" />
   <glyph
   unicode="e"
   horiz-adv-x="927"
   d="M 594,-15 C 496,-15 412,4 342,41 272,79 219,133 182,205 146,276 127,362 127,461 L 127,576 C 127,680 145,769 180,843 215,918 267,974 334,1014 401,1053 482,1072 576,1072 665,1072 741,1052 805,1010 869,968 917,908 950,829 983,750 1000,657 1000,549 L 1000,438 248,438 248,622 798,622 798,607 C 796,693 775,760 736,807 697,853 644,877 576,877 497,877 437,852 394,802 351,753 329,681 329,587 L 329,457 C 329,369 352,302 398,256 443,209 508,186 594,186 635,186 676,195 716,212 757,229 798,254 839,289 L 839,289 973,157 973,157 C 918,98 857,54 792,27 727,-1 660,-15 594,-15 Z"
   id="glyph49" />
   <glyph
   unicode="c"
   horiz-adv-x="900"
   d="M 588,-15 C 489,-15 405,3 336,38 268,74 216,126 180,195 145,264 127,348 127,447 L 127,615 C 127,713 145,796 181,865 216,933 268,985 337,1020 405,1055 489,1072 588,1072 643,1072 695,1066 744,1053 793,1040 836,1021 875,995 914,970 948,934 977,887 L 977,887 830,759 830,759 C 792,798 753,827 714,845 676,863 634,872 591,872 508,872 445,850 403,807 360,765 339,701 339,615 L 339,447 C 339,360 360,295 403,251 445,208 508,186 591,186 637,186 680,195 719,213 759,231 798,260 838,300 L 838,300 977,167 977,167 C 947,122 913,86 874,61 835,36 792,17 744,4 696,-8 644,-15 588,-15 Z"
   id="glyph51" />
   <glyph
   unicode="a"
   horiz-adv-x="874"
   d="M 756,665 C 756,734 738,787 702,825 666,862 614,880 547,880 505,880 463,874 423,860 382,847 342,827 303,800 L 158,901 C 202,961 256,1005 322,1032 388,1059 461,1072 541,1072 628,1072 704,1057 767,1025 831,994 879,948 913,888 946,828 963,757 963,674 L 963,0 756,0 756,665 Z M 502,-15 C 375,-15 278,14 210,71 142,128 108,211 108,320 108,425 139,505 202,560 264,615 354,642 471,642 L 804,642 820,456 472,456 C 419,456 379,445 352,422 326,399 313,365 313,320 313,272 330,236 365,211 399,186 452,173 524,173 604,173 663,181 700,196 737,210 756,237 756,274 L 818,111 C 794,80 767,56 736,38 705,21 670,7 631,-1 593,-10 550,-15 502,-15 Z"
   id="glyph53" />
   <glyph
   unicode="B"
   horiz-adv-x="1086"
   d="M 294,199 L 703,199 C 810,199 886,218 932,256 979,295 1002,349 1002,419 L 1002,422 C 1002,471 994,512 977,547 960,581 933,607 896,626 859,645 812,654 752,654 L 294,654 294,850 752,850 C 830,850 888,867 926,901 964,935 983,987 983,1055 L 983,1055 C 983,1127 962,1180 920,1215 878,1250 813,1268 725,1268 L 294,1268 294,1466 758,1466 C 854,1466 934,1449 1000,1416 1066,1383 1115,1336 1147,1275 1180,1214 1196,1142 1196,1059 L 1196,1059 C 1196,1008 1186,960 1166,914 1145,869 1114,829 1073,797 1032,764 986,749 936,752 985,755 1032,739 1077,705 1122,670 1156,627 1179,576 1203,525 1215,470 1215,411 L 1215,408 C 1215,328 1197,256 1161,194 1125,132 1074,84 1007,51 940,17 863,0 775,0 L 294,0 294,199 Z M 176,1466 L 388,1466 388,0 176,0 176,1466 Z"
   id="glyph55" />
  </font>
</defs>
</svg>
